#TITLE:Secret of Love;
#SUBTITLE:~Ganos original~;
#ARTIST:D.J.SWAN;
#TITLETRANSLIT:;
#SUBTITLETRANSLIT:;
#ARTISTTRANSLIT:;
#CREDIT:;
#BANNER:Secret of Love.png;
#BACKGROUND:Secret of Love-bg.png;
#LYRICSPATH:;
#CDTITLE:jet2.PNG;
#MUSIC:Secret of Love.mp3;
#OFFSET:-0.400;
#SAMPLESTART:56.330;
#SAMPLELENGTH:12.000;
#SELECTABLE:YES;
#BPMS:0.000=81.000,36.000=162.000;
#STOPS:;
#BGCHANGES:;
// cache tags:
#FIRSTBEAT:1.500;
#LASTBEAT:301.000;
#SONGFILENAME:Songs/Chilean Keyboard Megapack 3/(Ganos) Secret of Love/Secret of Love.sm;
#HASMUSIC:1;
#HASBANNER:1;
#MUSICLENGTH:128.582;
// end cache tags

//---------------dance-single - Keyboard----------------
#NOTES:
     dance-single:
     Keyboard:
     Challenge:
     13:
     1.000,1.000,1.000,1.000,1.000,775.000,236.000,188.000,0.000,4.000:
0000
0000
0000
0000
0000
0000
0020
0000
0000
0000
0000
0000
0000
0000
0000
0030
,
1000
0001
0100
0010
0000
0010
0100
0000
0100
0000
0100
0000
0100
0000
0100
0000
0010
0000
1000
0001
0000
0001
1000
0000
1000
0000
1000
0000
1000
0000
1000
0000
,
0001
0000
0100
0000
0010
0000
1000
0000
0000
0000
1000
0000
0010
0000
0000
0000
0010
0000
0000
0000
0010
0000
0000
0000
0010
0000
0000
0000
0010
0000
0010
0000
0100
0000
0000
0000
0001
0000
1000
0000
0000
0000
1000
0000
0001
0000
0000
0000
0010
0000
0010
0000
2200
3300
0000
0000
0000
0000
0000
0000
0000
0000
0000
0000
,
0022
0033
1000
0000
0100
0000
0010
0000
0000
0000
0010
0000
0100
0000
0000
0000
0100
0000
0000
0000
0100
0000
0000
0000
0100
0000
0000
0000
0100
0000
0000
0000
0010
0000
0000
0000
0001
0000
1000
0000
0000
0000
1000
0000
0001
0000
0000
0000
0001
0000
0000
0000
0001
0000
0000
0000
0001
0000
0000
0000
0001
0000
0000
0000
,
1000
0010
0100
0001
0000
0001
0100
0000
0100
0000
0100
0000
0100
0000
0100
0100
0010
0000
1000
0001
0000
0001
1000
0000
0200
0010
0010
0000
0010
0010
0010
0000
,
2320
3000
0000
0000
0000
0000
0000
0000
0000
0000
0000
0000
0032
0000
0000
0000
0000
0000
0000
0000
0000
0000
0000
0000
2003
0000
0000
0000
3020
0000
0000
0000
0000
0000
0000
0000
0000
0000
0000
0000
0000
0000
0000
0000
0000
0000
0000
0000
0000
0000
0000
0000
0000
0000
0000
0000
0230
0000
0000
0000
0302
0000
0000
0000
,
0000
0000
0000
0000
0000
0000
0000
0000
0000
0000
0000
0000
0000
0000
0000
0000
0000
0000
0000
0000
0000
0000
0000
0000
2003
0000
0000
0000
3200
0000
0000
0000
0000
0000
0000
0000
0000
0000
0000
0000
0000
0000
0000
0000
0000
0000
0000
0000
0000
0000
0000
0000
0322
0033
0000
0000
0000
0000
0000
0000
0000
0000
0000
0000
,
2002
3000
0000
0000
0000
0000
0000
0000
0000
0000
0000
0000
0203
0000
0000
0000
0000
0000
0000
0000
0000
0000
0000
0000
0320
0000
0000
0000
2030
0000
0000
0000
0000
0000
0000
0000
0000
0000
0000
0000
0000
0000
0000
0000
0000
0000
0000
0000
0000
0000
0000
0000
0000
0000
0000
0000
3200
0000
0000
0000
0320
0000
0000
0000
,
0000
0000
0000
0000
0000
0000
0032
2003
0000
0000
0000
0000
0000
0000
3000
0000
,
0220
0330
0000
0000
0000
0000
0000
0000
1000
0000
0000
0000
0100
0000
0000
0000
0011
0000
0000
0000
0100
0000
0000
0000
1000
0000
0000
0000
0011
0000
0000
0000
1100
0000
0000
0000
0000
0000
0000
0000
0011
0000
0000
0000
0000
0000
0000
0000
1001
0000
0000
0000
0000
0000
0000
0000
0100
0000
0000
0000
0000
0000
0000
0000
,
1010
0000
0100
0010
1001
0010
0100
1001
0110
0000
1001
0000
0110
0000
1000
0000
,
0110
0000
1000
0001
1010
0001
0100
0011
1100
0000
0011
0000
1100
0000
0001
0000
,
1100
0000
0000
0000
0000
0000
0000
0000
0001
0000
0000
0000
1000
0000
0000
0000
0011
0000
0000
0000
0100
0000
0000
0000
0001
0000
0000
0000
1100
0000
0000
0000
0011
0000
0000
0000
0000
0000
0000
0000
2200
3300
0000
0000
0000
0000
0000
0000
0011
0000
0000
0000
0000
0000
0000
0000
0100
0000
0000
0000
1000
0000
0000
0000
,
0022
0033
0000
0000
0000
0000
0000
0000
1000
0000
0000
0000
0100
0000
0000
0000
0011
0000
0000
0000
0100
0000
0000
0000
0001
0000
0000
0000
0110
0000
0000
0000
1100
0000
0000
0000
0000
0000
0000
0000
0011
0000
0000
0000
0000
0000
0000
0000
1100
0000
0000
0000
0000
0000
0000
0000
0001
0000
0000
0000
0000
0000
0000
0000
,
1010
0000
0001
1000
0101
0010
0001
1010
0101
0000
1010
0000
0101
0000
1000
0000
,
0110
1001
0011
1100
1010
0101
0110
1010
,
0101
0000
0000
0000
0000
0000
0000
0000
0110
0000
0000
0000
0000
0000
0000
0000
1100
0000
0000
0000
0000
0000
0000
0000
0011
0000
0000
0000
0000
0000
0000
0000
0101
0000
0000
0000
0000
0000
0000
0000
0000
0000
0000
0000
0000
0000
0000
0000
2002
3003
0000
0000
0000
0000
0000
0000
0000
0000
0000
0000
0000
0000
0000
0000
,
0220
0330
0000
0000
0000
0000
0000
0000
2000
0000
0000
0000
3000
0000
0000
0000
0200
0000
0000
0000
0300
0000
0000
0000
0020
0000
0000
0000
0030
0000
0000
0000
0002
0000
0000
0000
0003
0000
0000
0000
0210
0000
0000
0000
0300
0000
0000
0000
1020
0000
0000
0000
0030
0000
0000
0000
2001
0000
0000
0000
3000
0000
0000
0000
,
0020
0030
0200
0300
0002
0003
0120
0030
0200
0300
2010
3000
0102
0003
1200
0300
,
0021
0030
2000
3000
0210
0300
0020
0030
0200
0300
2010
3000
0102
0003
1200
0300
,
0020
0000
0000
0000
0030
0000
0000
0000
0200
0000
0000
0000
0300
0000
0000
0000
0002
0000
0000
0000
0003
0000
0000
0000
0120
0000
0000
0000
0000
0000
0000
0000
0030
0000
0000
0000
0000
0000
0000
0000
2200
3300
0000
0000
0000
0000
0000
0000
0000
0000
0000
0000
0000
0000
0000
0000
0000
0000
0000
0000
0000
0000
0000
0000
,
2200
3300
0000
0000
0000
0000
0000
0000
0020
0000
0000
0000
0030
0000
0000
0000
0002
0000
0000
0000
0003
0000
0000
0000
0200
0000
0000
0000
0300
0000
0000
0000
0020
0000
0000
0000
0030
0000
0000
0000
1200
0000
0000
0000
0300
0000
0000
0000
0012
0000
0000
0000
0003
0000
0000
0000
2100
0000
0000
0000
3000
0000
0000
0000
,
0002
0003
2000
3000
0200
0300
0120
0030
0002
0003
2100
3000
0012
0003
0120
0030
,
0201
0300
2000
3000
0201
0300
0020
0030
0200
0300
2010
3000
0102
0003
1200
0300
,
0020
0030
2100
3000
0210
0300
1020
0131
1000
0101
1000
0000
0110
0000
0100
1000
,
0022
0033
0000
0000
0000
0000
0000
0000
0010
0000
0000
0000
1000
0000
0000
0000
0101
0000
0000
0000
0010
0000
0000
0000
0001
0000
0000
0000
1100
0000
0000
0000
0011
0000
0000
0000
0000
0000
0000
0000
1010
0000
0000
0000
0000
0000
0000
0000
0011
0000
0000
0000
0000
0000
0000
0000
0100
0000
0000
0000
0000
0000
0000
0000
,
1000
0000
0001
0010
0101
1000
0001
1100
0011
0000
0110
0000
1001
0000
0010
0000
,
1000
0000
0010
0001
1100
0010
1000
0101
1010
0000
0011
0000
0110
0000
1000
0000
,
0001
0000
0000
0000
0000
0000
0000
0000
1000
0000
0000
0000
0100
0000
0000
0000
1010
0000
0000
0000
0001
0000
0000
0000
0100
0000
0000
0000
0011
0000
0000
0000
1100
0000
0000
0000
0000
0000
0000
0000
2020
3030
0000
0000
0000
0000
0000
0000
0100
0000
0000
0000
0000
0000
0000
0000
0011
0000
0000
0000
1000
0000
0000
0000
,
0202
0303
0000
0000
0000
0000
0000
0000
2000
0000
0000
0000
3000
0000
0000
0000
0002
0000
0000
0000
0003
0000
0000
0000
0200
0000
0000
0000
0300
0000
0000
0000
0020
0000
0000
0000
0030
0000
0000
0000
2000
0000
0000
0000
3000
0000
0000
0000
0200
0000
0000
0000
0300
0000
0000
0000
0020
0000
0000
0000
0030
0000
0000
0000
,
0200
0300
2000
3000
0002
0003
0200
0300
0020
0030
0200
0300
0002
0003
0020
0030
,
1200
0300
0021
0030
0210
0300
2010
3000
0102
0003
2001
3000
0210
0300
0012
0003
,
2100
3000
0210
0300
1002
0003
0021
0030
1100
0000
0101
0000
1000
0100
0010
0001
,
1100
0000
0010
0001
1100
0001
0100
0011
1100
0000
0110
0000
1001
0000
0000
0000
,
0011
0000
1000
0100
0011
0100
1000
0011
1100
0000
1010
0000
1001
0000
0000
0000
,
0110
0000
1000
0100
0011
0100
1000
0101
1010
0000
0110
0000
1001
0000
0000
0000
,
1010
0000
0100
0010
0101
0000
1000
0100
0011
0100
1010
0000
0110
0000
0010
0001
,
1100
0000
0001
0010
1100
0010
0001
1010
0101
0000
1100
0000
0011
0000
0000
0000
,
1010
0000
0100
0010
1001
0100
0010
1001
0110
0000
1001
0000
0110
0000
0000
0000
,
1100
0011
1100
0000
0011
0000
1100
0011
0000
0011
1100
0000
0110
0000
0000
1100
,
0011
0000
1001
0110
1001
0000
0000
0110
0000
0000
1001
0000
0002
0203
0320
2030
,
3022
0030
0000
0000
0100
0000
0000
0000
1000
0000
0000
0000
0100
0000
0000
0000
0010
0000
0000
0000
0100
0000
0000
0000
1000
0000
0000
0000
0100
0000
0000
0000
0010
0000
0000
0000
0000
0000
0000
0000
1000
0000
0000
0000
0000
0000
0000
0000
0010
0000
0000
0000
0000
0000
0000
0000
0000
0000
0000
0000
0000
0000
0000
0000
,
1000
0000
1000
0100
0010
0100
1000
0010
0203
0000
0010
0000
0001
0000
0302
2003
,
3020
0000
1000
0100
0001
0100
1000
0100
0001
0000
1000
0000
0001
0000
0000
0000
,
1000
0000
0001
0100
1000
0100
0001
0100
2030
0100
0000
0000
0100
0000
3200
0320
,
0032
0000
1000
0100
0010
1000
0203
0010
0001
0000
0001
0000
0320
0000
0000
0000
,
2030
0000
0001
0010
0100
0001
3200
0001
0010
0000
0001
0000
0320
0000
0000
0000
,
0031
0010
0100
1000
0101
0010
0100
1000
0001
0100
0010
1000
0101
1000
0100
0010
,
0001
0010
0100
0010
1001
0100
0010
0100
0001
0010
0100
1000
0110
0001
0100
1000
,
0100
0001
0010
1000
0101
0010
0100
1000
0010
0100
0010
1000
0101
1000
0001
0100
,
0010
1000
0010
0100
0011
1000
0010
0100
0010
1000
0100
0010
0101
1000
0001
0100
,
0010
1000
0100
0010
1100
0010
0100
1000
0001
0100
1000
0100
0011
1000
0100
0010
,
1100
0000
0000
0000
0010
0000
0000
0000
0101
0000
0000
0000
1000
0000
0000
0000
0011
0000
0000
0000
0100
0000
0000
0000
1001
0000
0000
0000
0100
0000
0000
0000
0011
0000
0000
0000
0000
0000
0000
0000
0000
0000
0000
0000
0000
0000
0000
0000
2002
3003
0000
0000
0000
0000
0000
0000
0000
0000
0000
0000
0000
0000
0000
0000
,
1010
0000
0100
0010
1001
0100
0010
1001
0110
0000
0011
0000
1010
0000
0100
0000
,
0011
0000
1000
0100
1010
0001
0100
0011
1100
0000
0110
0000
1001
0000
0100
0000
,
1010
0000
0001
0100
0011
1000
0010
1100
0011
0000
1100
0000
0011
0000
0100
0000
,
0011
0000
1000
0001
1100
0010
1000
0101
1010
0001
0000
0000
0110
0000
1000
0001
,
1100
0000
0100
0010
1001
0100
0010
1100
0011
0000
0110
0000
1010
0000
0100
0000
,
0011
0000
1000
0100
0011
0100
1000
0011
1100
0000
0110
0000
1001
0000
0010
0000
,
1000
0100
0010
0001
1010
0100
1000
0001
0100
0010
1000
0010
1100
0001
0010
0100
,
0010
0001
0100
0010
1001
0010
0100
0001
1000
0100
0010
0100
1010
0001
0100
0010
,
2000
0000
0100
0010
0001
0010
0100
0010
3002
0000
0010
0000
0203
0000
0320
0000
,
1000
0000
0001
0100
1000
0100
0001
0100
2030
0000
0100
0000
0010
0000
3002
0023
,
0230
0000
0001
0010
1000
0010
0001
1000
0320
0000
0100
0000
1000
0000
0032
0203
,
0302
0000
0010
0100
1000
0100
0010
0100
2003
0100
0000
0000
0100
0000
3200
0320
,
0032
0000
0010
0100
1000
0010
0203
1000
0001
0000
0010
0000
0320
0000
0000
0000
,
2030
0000
0100
0010
0001
0010
3002
0100
0010
0000
1000
0000
0203
0000
0000
0000
,
0310
1000
0100
0010
0101
1000
0001
0100
0010
0100
0001
0010
1100
0010
0001
0100
,
1000
0100
0001
0010
0101
1000
0001
0010
0100
0010
0001
0100
0011
1000
0010
0100
,
2000
0000
0000
0000
,
0000
0000
0000
0000
0000
0000
0000
0000
3200
0000
0000
0000
0000
0000
0302
2003
,
3002
0000
0000
0000
0000
0000
0000
0000
0203
0000
0000
0000
0000
0000
0320
2030
,
3002
0000
0000
0000
0000
0000
0000
0000
2003
0000
0000
0000
0000
0000
3200
0320
,
0032
0000
0000
0203
0000
0000
0320
0000
,
2030
0000
0000
3200
0000
0000
0320
0000
,
0032
0003
0000
0000
;
